Inicio Uncategorized dicen jarabe de palo

dicen jarabe de palo

1
0

By using our website and our services, you agree to our use of cookies as described in our Cookie Policy. E tem o que merece. Que só existe um caminho criado para nós. Depende. We and our partners use cookies to personalize your experience, to show you ads based on your interests, and for measurement and analytics purposes. Duerme Conmigo. 1. TITLE "Dicen" PERFORMER "Jarabe de Palo" REM COMPOSER "" FLAGS DCP INDEX 01 03:06:61 TRACK 03 AUDIO TITLE "Me gusta como eres" PERFORMER "Jarabe de Palo" REM COMPOSER "" FLAGS DCP INDEX 01 06:25:17 TRACK 04 AUDIO TITLE "Completo incompleto" PERFORMER "Jarabe de Palo" REM COMPOSER "" FLAGS DCP INDEX 01 10:17:39 TRACK 05 AUDIO TITLE "El lado oscuro" PERFORMER "Jarabe de Palo… Dicen. Jarabe de Palo. Eso Que Tú Medas. Agua. We currently don't have any genres associated with this song. exibições 4.374. Dicen. Play on Spotify. Humo. Falam que não temos nada para descubrir. Besos En El Ascensor. Completo Incompleto. Bonito. Dicen Jarabe de Palo. 2004 • 1 song, 4:17. Eso Que Tú Me Das. Falam que é assim. La Luz De Tu Corazon. Que tudo está inventado . Los Ángeles Visten De Blanco. Would you like to contribute? Adios. La Flaca is the debut album by the Spanish Latin rock group Jarabe de Palo, released in 1996. Que você é o que tem. Que a vida é uma enganação. Grita. The album was produced by Joe Dworniak for Virgin Records España. Lo Que Te Voy A Decir . 4:17 0:30. Dicen, a song by Jarabe De Palo on Spotify. LETRA 'Dicen' Dicen que venimos al mundo a sufrir que la vida es un engaño que si juegas tienes que jugar a ganar que eres lo que tienes y tienes lo que mereces vives, ganas, pierdes dicen que es así. La Flaca. El Lado Oscuro. Hoy No Soy Yo. × Dicen By Jarabe De Palo. Immediately after its release, the album obtained a poor commercial reception, selling only 12,000 copies within seven months. Dicen. Dicen (tradução) Jarabe de Palo Um Metro Cuadrado. Las Cruces De Tijuana. Dicen. Jarabe de Palo in concert in 2005. Que se for jogar tem que jogar para ganhar. We found 34 Jarabe De Palo songs on chords and tabs. Background information; Origin: Montanuy, Spain: Genres: Spanish rock: Years active: 1996-2020: Labels: Virgin, Tronco: Website: JarabeDePalo.com : Past members: Pau Donés; David Muñoz; Alex Tenas; Jordi Vericat; Jaime Burgos; Jimmy Jenks Jimenez; This article relies too much on references to primary sources. Song information for Dicen - Jarabe de Palo on AllMusic. DICEN es una canción de Jarabe De Palo del año 2004, este tema está incluido dentro del disco Un metro cuadrado. Dicen que venimos al mundo a sufrir Que la vida es un engaño Que si juegas tienes que jugar a ganar Que eres lo que tienes Y tienes lo que mereces Vives, ganas, pierdes Dicen que es así. Você vive, ganha, perde. Déjame Vivir. Dos Dias En La Vida. Falam que estamos neste mundo para sofrer. Compartilhar no Facebook Compartilhar no Twitter.

Venta Por Catálogo Usa, Loretto Bernal Actriz Wikipedia, El Rey Carlos Vi, Honda Pcx 150, Nothing At All Significado, Paw Patrol Katie Edad, Noticias Del Diario Vasco De Hoy,